#TITLE:Run Away;
#SUBTITLE:Expi3nze;
#ARTIST:Epik High;
#TITLETRANSLIT:;
#SUBTITLETRANSLIT:;
#ARTISTTRANSLIT:;
#CREDIT:;
#BANNER:bn.png;
#BACKGROUND:bg.png;
#LYRICSPATH:;
#CDTITLE:cdtitle.png;
#MUSIC:Run.mp3;
#OFFSET:-0.020;
#SAMPLESTART:75.770;
#SAMPLELENGTH:24.375;
#SELECTABLE:YES;
#BPMS:0.000=40.000,4.000=80.000,5.000=40.000,7.500=80.002,8.000=79.998,8.500=40.000,9.000=80.000,10.000=160.005,11.000=159.995,12.000=160.005,13.000=159.995,14.000=160.005,15.000=159.995,16.000=160.005,17.000=159.995,18.000=160.005,19.000=159.995,20.000=160.005,21.000=159.995,22.000=160.005,23.000=159.995,24.000=160.005,25.000=159.995,26.000=160.005,27.000=159.995,28.000=160.005,29.000=159.995,30.000=160.005,31.000=159.995,32.000=160.005,33.000=159.995,34.000=160.005,35.000=159.995,36.000=160.005,37.000=159.995,38.000=160.005,39.000=159.995,40.000=160.005,41.000=159.995,42.000=160.005,43.000=159.995,44.000=160.005,45.000=159.995,46.000=160.005,47.000=159.995,48.000=160.005,49.000=159.995,50.000=160.005,51.000=159.995,52.000=160.005,53.000=159.995,54.000=160.005,55.000=159.995,56.000=160.005,57.000=159.995,58.000=160.005,59.000=159.995,60.000=160.005,61.000=159.995,62.000=160.005,63.000=159.995,64.000=160.005,65.000=159.995,66.000=160.005,67.000=159.995,68.000=160.005,69.000=159.995,70.000=160.005,71.000=159.995,72.000=160.005,73.000=159.995,74.000=40.001,74.250=80.007,74.500=40.001,74.750=80.007,75.000=79.998,75.500=40.001,75.750=80.007,76.000=40.001,76.250=80.001,77.000=160.005,78.000=159.995,79.000=160.005,80.000=159.995,81.000=160.005,82.000=159.995,83.000=160.005,84.000=159.995,85.000=160.005,86.000=159.995,87.000=160.005,88.000=159.995,89.000=160.005,90.000=159.995,91.000=160.005,92.000=159.995,93.000=160.005,94.000=159.995,95.000=160.005,96.000=159.995,97.000=160.005,98.000=159.995,99.000=160.005,100.000=159.995,101.000=160.005,102.000=159.995,103.000=160.005,104.000=159.995,105.000=160.005,106.000=159.995,107.000=160.005,108.000=159.995,109.000=160.005,110.000=159.995,111.000=160.005,112.000=159.995,113.000=160.005,114.000=159.995,115.000=160.005,116.000=159.995,117.000=160.005,118.000=159.995,119.000=160.005,120.000=159.995,121.000=160.005,122.000=159.995,123.000=160.005,124.000=159.995,125.000=160.005,126.000=159.995,127.000=160.005,128.000=159.995,129.000=160.005,130.000=159.995,131.000=160.005,132.000=159.995,133.000=160.005,134.000=159.995,135.000=160.005,136.000=159.995,137.000=160.005,138.000=159.995,139.000=320.029,140.000=319.990,143.000=80.000,147.000=80.007,147.250=40.001,147.500=80.002,148.000=80.000,155.000=40.001,155.250=80.001,156.000=80.000,157.000=80.002,157.500=40.000,158.000=160.005,159.000=159.995,160.000=160.005,161.000=159.995,162.000=160.005,163.000=159.995,164.000=160.005,165.000=159.995,166.000=160.005,167.000=159.995,168.000=160.005,169.000=159.995,170.000=160.005,171.000=159.995,172.000=160.005,173.000=159.995,174.000=160.005,175.000=159.995,176.000=160.005,177.000=159.995,178.000=160.005,179.000=159.995,180.000=160.005,181.000=159.995,182.000=160.005,183.000=159.995,184.000=160.005,185.000=159.995,186.000=160.005,187.000=159.995,188.000=160.005,189.000=159.995,190.000=160.005,191.000=159.995,192.000=160.005,193.000=159.995,194.000=160.005,195.000=159.995,196.000=160.005,197.000=159.995,198.000=160.005,199.000=159.995,200.000=160.005,201.000=159.995,202.000=160.005,203.000=159.995,204.000=160.005,205.000=159.995,206.000=160.005,207.000=159.995,208.000=160.005,209.000=159.995,210.000=160.005,211.000=159.995,212.000=160.005,213.000=159.995,214.000=160.005,215.000=159.995,216.000=160.005,217.000=159.995,218.000=320.010,218.250=80.003,218.375=160.005,218.500=320.010,218.750=80.003,218.875=160.005,219.000=319.990,219.250=79.997,219.375=159.995,219.500=319.990,219.750=79.997,219.875=159.995,220.000=320.010,220.250=80.003,220.375=160.005,220.500=320.010,220.750=80.003,220.875=160.005,221.000=319.990,221.250=79.997,221.375=159.995,222.000=80.000,226.000=40.001,226.250=79.998,226.500=40.001,226.750=79.998,227.000=80.002,227.500=40.001,227.750=79.998,228.000=40.001,228.250=80.001,229.000=80.000,236.000=320.029,236.250=80.007,236.375=160.015,236.500=320.029,236.750=80.007,236.875=160.015,237.000=160.005,238.000=159.995,239.000=160.005,240.000=159.995,241.000=160.005,242.000=159.995,243.000=160.005,244.000=159.995,245.000=160.005,246.000=159.995,247.000=160.005,248.000=159.995,249.000=160.005,250.000=159.995,251.000=160.005,252.000=159.995,253.000=160.005,254.000=159.995,255.000=160.005,256.000=159.995,257.000=160.005,258.000=159.995,259.000=160.005,260.000=159.995,261.000=160.005,262.000=159.995,263.000=160.005,264.000=159.995,265.000=160.005,266.000=159.995,267.000=160.005,268.000=159.995,269.000=160.005,270.000=159.995,271.000=160.005,272.000=159.995,273.000=160.005,274.000=159.995,275.000=160.005,276.000=159.995,277.000=160.005,278.000=159.995,279.000=160.005,280.000=159.995,281.000=160.005,282.000=159.995,283.000=160.005,284.000=159.995,285.000=160.005,286.000=159.995,287.000=160.005,288.000=159.995,289.000=160.005,290.000=159.995,291.000=160.005,292.000=159.995,293.000=160.005,294.000=159.995,295.000=160.005,296.000=159.995,297.000=160.005,298.000=319.990,298.250=79.997,298.375=159.995,298.500=319.990,298.750=79.997,298.875=159.995,299.000=320.010,299.250=80.003,299.375=160.005,299.500=320.010,299.750=80.003,299.875=160.005,300.000=319.990,300.250=79.997,300.375=159.995,300.500=319.990,300.750=79.997,300.875=159.995,301.000=319.990,301.250=79.997,301.375=159.995,302.000=320.029,303.000=160.005,304.000=159.995,305.000=160.005,306.000=159.995,307.000=160.005;
#STOPS:;
#BGCHANGES:;
// cache tags:
#FIRSTBEAT:0.500;
#LASTBEAT:302.750;
#SONGFILENAME:Songs/SDO pack 3/Run Away (E)/Run.sm;
#HASMUSIC:1;
#HASBANNER:1;
#MUSICLENGTH:138.060;
// end cache tags

//---------------dance-single - ----------------
#NOTES:
     dance-single:
     :
     Hard:
     14:
     1.000,1.000,1.000,0.167,1.000,1094.000,241.000,23.000,0.000,6.000:
0000
0000
0010
0100
0001
0010
1000
0100
0010
0001
0100
0010
1000
0100
0001
0010
,
1000
0100
0001
0010
0100
0001
0010
1000
0100
0010
1000
0100
0001
0010
0001
1000
,
0100
0010
0001
0000
2200
0000
0000
0000
3311
0100
1000
0010
0101
0010
1000
0100
,
1001
0100
0010
0001
1100
0001
0010
1000
0101
0010
1000
0001
1100
0001
0010
0100
,
1001
0010
0001
0100
0011
1000
0100
1000
0011
0100
0010
0001
1100
0001
0010
0100
,
1001
0010
0001
0100
1010
0001
0100
0010
1001
0010
0001
0100
1010
0100
0001
1000
,
0011
0000
0011
0000
0011
1000
0100
0001
1100
0010
0001
0100
1010
0100
0001
0010
,
1001
0010
0100
1000
0011
1000
0100
0001
1010
0100
0001
1000
0011
1000
0100
0010
,
1001
0100
1000
0010
1100
0001
0010
0001
1100
0010
0100
1000
0011
1000
0100
0010
,
1001
0100
1000
0010
0101
1000
0010
0100
1001
0100
1000
0010
0101
0010
1000
0001
,
1100
0000
1100
0000
1100
0001
0010
1000
0011
0100
1000
0010
0101
0010
1000
0100
,
1001
0100
0010
0001
1100
0001
0010
1000
0101
0010
1000
0001
1100
0001
0010
0100
,
1001
0010
0001
0100
0011
1000
0100
1000
0011
0100
0010
0001
1100
0001
0010
0100
,
1001
0010
0001
0100
1010
0001
0100
0010
1001
0010
0001
0100
1010
0100
0001
1000
,
0011
0000
0011
0000
0011
1000
0100
0001
1100
0010
0001
0100
1010
0100
0001
0010
,
1001
0010
0100
1000
0011
1000
0100
0001
1010
0100
0001
1000
0011
1000
0100
0010
,
1001
0100
1000
0010
1100
0001
0010
0001
1100
0010
0100
1000
0011
1000
0100
0010
,
1001
0100
1000
0010
0101
1000
0010
0100
1001
0100
1000
0010
0101
0010
1000
0001
,
1100
0001
0010
0100
1001
0010
0100
1000
0010
0100
0001
0010
0000
0000
1000
0100
,
0010
0001
0000
0000
0100
0010
1000
0100
0010
0001
0100
0010
0100
1000
0001
0100
,
0011
1000
0100
0010
0001
0100
0010
0100
1000
0010
0001
0100
1010
0100
0001
0100
,
0010
0100
1000
0011
1000
0100
0010
0100
0001
1000
0100
0010
0100
0001
1000
0100
,
0011
1000
0100
0001
0010
1000
0010
0100
0010
0001
0100
1000
0011
1000
0100
0010
,
1001
0100
0010
1000
0010
0100
0001
0010
0100
0010
0001
0100
1000
0001
0100
1000
,
0011
1000
0100
0001
1000
0100
0010
0100
1000
0010
0001
0100
1010
0100
0001
0010
,
1000
0100
0000
1100
0001
0010
0100
1000
0010
0001
0100
0010
1000
0001
0010
0100
,
0011
1000
0100
0010
0001
0100
1000
0010
1100
0010
0001
0100
1001
0010
1000
0100
,
0011
1000
0100
0001
0010
1000
0010
0100
0010
0001
1000
0100
0010
0100
1000
0010
,
1100
0001
0010
1000
0100
0010
0100
0001
1000
0010
0100
0010
1001
0100
1000
0010
,
0100
0001
0010
1001
0100
0010
0001
0100
1000
0010
0100
0010
1000
0100
0010
0001
,
1100
0001
0010
1000
0010
0100
0010
0001
0010
1000
0100
1000
0011
1000
0100
0010
,
1001
0100
1000
0010
0100
1000
0010
0100
0010
0001
0100
1000
0001
0010
0100
1000
,
0011
1000
0010
0100
0010
0001
0100
0010
0100
1000
0010
0001
1100
0001
0010
1000
,
0101
0010
1000
0100
0010
0001
0100
1000
0010
0100
0010
0001
0100
0010
1000
0001
,
1100
0001
0010
1000
0100
0010
0100
0001
1000
0100
0001
0010
2200
0000
0000
0000
,
0000
0000
3300
1110
,
0001
0010
1000
0100
0001
0010
0100
1000
0011
0000
0101
0000
0100
0000
0000
1110
,
0000
0000
0000
0022
0000
0000
0033
0011
1000
0100
0010
0100
0000
0000
0000
0010
,
0100
0001
0010
1000
0100
0010
0001
1100
0000
1010
0000
0010
0000
0000
0111
0000
,
0000
0000
0222
0000
0000
0000
0333
0000
0011
0100
1000
0010
0101
0010
1000
0100
,
1001
0100
0010
0001
1100
0001
0010
1000
0101
0010
1000
0001
1100
0001
0010
0100
,
1001
0010
0001
0100
0011
1000
0100
1000
0011
0100
0010
0001
1100
0001
0010
0100
,
1001
0010
0001
0100
1010
0001
0100
0010
1001
0010
0001
0100
1010
0100
0001
1000
,
0011
0000
0011
0000
0011
1000
0100
0001
1100
0010
0001
0100
1010
0100
0001
0010
,
1001
0010
0100
1000
0011
1000
0100
0001
1010
0100
0001
1000
0011
1000
0100
0010
,
1001
0100
1000
0010
1100
0001
0010
0001
1100
0010
0100
1000
0011
1000
0100
0010
,
1001
0100
1000
0010
0101
1000
0010
0100
1001
0100
1000
0010
0101
0010
1000
0001
,
1100
0000
1100
0000
1100
0001
0010
1000
0011
0100
1000
0010
0101
0010
1000
0100
,
1001
0100
0010
0001
1100
0001
0010
1000
0101
0010
1000
0001
1100
0001
0010
0100
,
1001
0010
0001
0100
0011
1000
0100
1000
0011
0100
0010
0001
1100
0001
0010
0100
,
1001
0010
0001
0100
1010
0001
0100
0010
1001
0010
0001
0100
1010
0100
0001
1000
,
0011
0000
0011
0000
0011
1000
0100
0001
1100
0010
0001
0100
1010
0100
0001
0010
,
1001
0010
0100
1000
0011
1000
0100
0001
1010
0100
0001
1000
0011
1000
0100
0010
,
1001
0100
1000
0010
1100
0001
0010
0001
1100
0010
0100
1000
0011
1000
0100
0010
,
1001
0100
1000
0010
0101
1000
0010
0100
1001
0100
1000
0010
0101
0010
1000
0001
,
1100
0001
0010
0100
1001
0010
0100
1000
0020
0000
0030
0000
0020
0000
0030
0000
,
0020
0000
0030
0000
0020
0000
0030
0000
0010
0001
0100
0010
0000
0000
0001
0010
,
0100
1000
0000
0000
0020
0000
0030
0000
0020
0000
0030
0000
0020
0000
0030
0000
,
0020
0030
0020
0030
2220
0000
0000
3330
,
1100
0000
1100
0000
0101
0000
0000
0000
0011
0100
1000
0010
0101
0010
1000
0100
,
1001
0100
0010
0001
1100
0001
0010
1000
0101
0010
1000
0001
1100
0001
0010
0100
,
1001
0010
0001
0100
0011
1000
0100
1000
0011
0100
0010
0001
1100
0001
0010
0100
,
1001
0010
0001
0100
1010
0001
0100
0010
1001
0010
0001
0100
1010
0100
0001
1000
,
0011
0000
0011
0000
0011
1000
0100
0001
1100
0010
0001
0100
1010
0100
0001
0010
,
1001
0010
0100
1000
0011
1000
0100
0001
1010
0100
0001
1000
0011
1000
0100
0010
,
1001
0100
1000
0010
1100
0001
0010
0001
1100
0010
0100
1000
0011
1000
0100
0010
,
1001
0100
1000
0010
0101
1000
0010
0100
1001
0100
1000
0010
0101
0010
1000
0001
,
1100
0000
1100
0000
1100
0001
0010
1000
0011
0100
1000
0010
0101
0010
1000
0100
,
1001
0100
0010
0001
1100
0001
0010
1000
0101
0010
1000
0001
1100
0001
0010
0100
,
1001
0010
0001
0100
0011
1000
0100
1000
0011
0100
0010
0001
1100
0001
0010
0100
,
1001
0010
0001
0100
1010
0001
0100
0010
1001
0010
0001
0100
1010
0100
0001
1000
,
0011
0000
0011
0000
0011
1000
0100
0001
1100
0010
0001
0100
1010
0100
0001
0010
,
1001
0010
0100
1000
0011
1000
0100
0001
1010
0100
0001
1000
0011
1000
0100
0010
,
1001
0100
1000
0010
1100
0001
0010
0001
1100
0010
0100
1000
0011
1000
0100
0010
,
1001
0100
1000
0010
0101
1000
0010
0100
1001
0100
1000
0010
0101
0010
1000
0001
,
1100
0000
0000
0000
0000
0000
0000
0000
0000
0000
0000
0000
0001
0000
0000
0000
0000
0000
0000
0000
0000
0000
0000
0000
0010
0000
0000
0000
0000
0000
0000
0000
0000
0000
0000
0000
0100
0000
0000
0000
0000
0000
0000
0000
0000
0000
0000
0000
1001
0000
0000
0000
0000
0000
0000
0000
0000
0000
0000
0000
0010
0000
0000
0000
0000
0000
0000
0000
0000
0000
0000
0000
0100
0000
0000
0000
0000
0000
0000
0000
0000
0000
0000
0000
1000
0000
0000
0000
0000
0000
0000
0000
0000
0000
0000
0000
0000
0022
0000
0000
0000
0000
0000
0000
0000
0000
0000
0000
0000
0000
0000
0000
0000
0000
0000
0000
0000
0000
0000
0000
0003
0000
0000
0000
0000
0000
0000
0000
0000
0000
0000
0000
0030
0000
0000
0000
0000
0000
0000
0000
0000
0000
0000
0000
0000
0000
0000
0000
0000
0000
0000
0000
0000
0000
0000
0000
0000
0000
0000
0000
0000
0000
0000
0000
0000
0000
0000
0000
0000
0000
0000
0000
0000
0000
0000
0000
0000
0000
0000
0000
0000
0000
0000
0000
0000
0000
0000
0000
0000
0000
0000
0000
;
